+ ShareSpark.net »  :::: Dubbed Zone (Dubbed English in Hindi) » English Movies Dubbed in Hindi » High Resolution Movies
|- Kung Fu Yoga (2017) BluRay 1080p x264 Multi Audio [Hindi-Chinese] DD 5.1 [English DD 2.0]ESubs-Hon3y


100% Recharge Offer

Kung Fu Yoga (2017) BluRay 1080p x264 Multi Audio [Hindi-Chinese] DD 5.1 [English DD 2.0]ESubs-Hon3y

0 Members and 1 Guest are viewing this topic.

September 01, 2017, 08:04:14 PM
  • Global Moderator
  • Legend Member
  • *****
  • Topic Author
  • Thank You: 10694
  • Reputation: 2160
  • Activity:
    100%
  • Country: in
  • Posts: 5345
  • Topics: 4415
  • Join Date: Jan 2014
  • ıllıllı ѕмoĸιng ιѕ good ғor нealтн ıllıllı :)
Kung Fu Yoga (2017) BluRay 1080p x264 Multi Audio [Hindi-Chinese] DD 5.1 [English DD 2.0]ESubs-Hon3y - 4.42 GB



:info:

Quote
General
Format                                   : Matroska
Format version                           : Version 4 / Version 2
File size                                : 4.42 GiB
Duration                                 : 1 h 47 min
Overall bit rate                         : 5 908 kb/s
Movie name                               : Kung Fu [email protected]

Video
Format                                   : AVC
Format/Info                              : Advanced Video Codec
Format profile                           : [email protected]
Format settings, CABAC                   : Yes
Format settings, RefFrames               : 5 frames
Codec ID                                 : V_MPEG4/ISO/AVC
Duration                                 : 1 h 47 min
Bit rate                                 : 5 000 kb/s
Width                                    : 1 920 pixels
Height                                   : 800 pixels
Display aspect ratio                     : 2.40:1
Frame rate mode                          : Constant
Frame rate                               : 24.000 FPS
Color space                              : YUV
Chroma subsampling                       : 4:2:0
Bit depth                                : 8 bits
Scan type                                : Progressive
Bits/(Pixel*Frame)                       : 0.136
Stream size                              : 3.74 GiB (85%)
Title                                    : Kung Fu [email protected]

Audio 1
Format                                   : AC-3
Format/Info                              : Audio Coding 3
Format settings, Endianness              : Big
Codec ID                                 : A_AC3
Duration                                 : 1 h 47 min
Bit rate mode                            : Constant
Bit rate                                 : 224 kb/s
Channel(s)                               : 6 channels
Channel positions                        : Front: L C R, Side: L R, LFE
Sampling rate                            : 48.0 kHz
Frame rate                               : 31.250 FPS (1536 SPF)
Bit depth                                : 16 bits
Compression mode                         : Lossy
Delay relative to video                  : 2 s 0 ms
Stream size                              : 171 MiB (4%)
Title                                    : [email protected]
Language                                 : Hindi
Service kind                             : Complete Main
Default                                  : Yes
Forced                                   : Yes

Audio 2
Format                                   : AC-3
Format/Info                              : Audio Coding 3
Format settings, Endianness              : Big
Codec ID                                 : A_AC3
Duration                                 : 1 h 47 min
Bit rate mode                            : Constant
Bit rate                                 : 448 kb/s
Channel(s)                               : 6 channels
Channel positions                        : Front: L C R, Side: L R, LFE
Sampling rate                            : 48.0 kHz
Frame rate                               : 31.250 FPS (1536 SPF)
Bit depth                                : 16 bits
Compression mode                         : Lossy
Stream size                              : 343 MiB (8%)
Title                                    : [email protected]
Language                                 : Chinese
Service kind                             : Complete Main
Default                                  : No

Audio 2
Format                                   : AC-3
Format/Info                              : Audio Coding 3
Format settings, Endianness              : Big
Codec ID                                 : A_AC3
Duration                                 : 1 h 47 min
Bit rate mode                            : Constant
Bit rate                                 : 224 kb/s
Channel(s)                               : 2 channels
Channel positions                        : Front: L R
Sampling rate                            : 48.0 kHz
Frame rate                               : 31.250 FPS (1536 SPF)
Bit depth                                : 16 bits
Compression mode                         : Lossy
Stream size                              : 172 MiB (4%)
Title                                    : [email protected]
Language                                 : English
Service kind                             : Complete Main
Default                                  : No

SubTitle
Format                                   : PGS
Muxing mode                              : zlib
Codec ID                                 : S_HDMV/PGS
Codec ID/Info                            : Picture based subtitle format used on BDs/HD-DVDs
Duration                                 : 1 h 33 min
Bit rate                                 : 14.9 kb/s
Count of elements                        : 2647
Stream size                              : 9.97 MiB (0%)
Title                                    : English [email protected]
Language                                 : English
Default                                  : Yes

SubTitle SRT Format Included

Chapters Menu
00:00:00.000                             : en:00:00:00.000
00:10:50.000                             : en:00:10:50.000
00:19:09.208                             : en:00:19:09.208
00:27:54.708                             : en:00:27:54.708
00:36:04.125                             : en:00:36:04.125
00:43:04.417                             : en:00:43:04.417
00:56:54.167                             : en:00:56:54.167
01:03:21.083                             : en:01:03:21.083
01:11:30.792                             : en:01:11:30.792
01:22:44.167                             : en:01:22:44.167
01:30:59.292                             : en:01:30:59.292
01:38:54.542                             : en:01:38:54.542

:ss:









 :download:

Quote









File Leeched & Uploaded From




Don't walk as you are king, walk as you don't care who the king is....!!
Never argue with an idiot. They drag you down to their level and then beat you with experience?

Share this topic on FacebookShare this topic on GoogleShare this topic on MySpaceShare this topic on TwitterShare this topic on Yahoo

« Last Edit: September 01, 2017, 08:12:34 PM by Rάήνίјάч1234 »



Don't walk as you are king, walk as you don't care who the king is....!!

October 30, 2018, 04:19:07 PM
Reply #1
  • Semi Newbie
  • **
  • Thank You: 0
  • Reputation: 0
  • Activity:
    0.8%
  • Country: au
  • Posts: 9
  • Topics: 0
  • Join Date: Jun 2017
  • ShareSpark Member

Tags:
 

Related Topics





Back to top